اهلابيكم فى منتديات قااااااااهر
 
الرئيسيةالبوابةس .و .جبحـثالأعضاءالمجموعاتالتسجيلدخول

شاطر | 
 

 Assassination Of Jesse James WS DVDRip XViD NoRAR MultiSUB

اذهب الى الأسفل 
كاتب الموضوعرسالة
مجدى لورد

avatar

المساهمات : 92
تاريخ التسجيل : 03/11/2008
العمر : 34

مُساهمةموضوع: Assassination Of Jesse James WS DVDRip XViD NoRAR MultiSUB   الجمعة نوفمبر 14, 2008 3:49 pm

ارجو الرد حتى لا يتوقف التحميل
Assassination Of Jesse James WS DVDRip XViD NoRAR MultiSUB
The last months of Jesse James's life, from meeting Robert Ford, a
19-year-old who idolizes Jesse, to the day Ford shoots him. Jesse's a
wanted man, living under a pseudonym, carrying out a train robbery,
disappearing to Kentucky, and reappearing to plan a bank holdup with
Robert and Robert's brother as his team. The rest of the gang is dead,
arrested, or gone from Missouri. Whenever Jesse's around, there's
tension: he's murderous, quixotic, depressed, and cautious. Ford wants
to be somebody and wants the reward. On April 3, 1882, things come to a
head: Jesse is 34, Robert 20. Ford becomes famous, reenacting the
shooting on stage, facing down the label "coward," shot dead in 1892.

IMDB Info



Cast
Brad Pitt ... Jesse James
Mary-Louise Parker ... Zee James
Brooklynn Proulx ... Mary James
Dustin Bollinger ... Tim James
Casey Affleck ... Robert Ford
Sam Rockwell ... Charley Ford
Jeremy Renner ... Wood Hite
Sam Shepard ... Frank James
Garret Dillahunt ... Ed Miller
Paul Schneider ... Dick Liddil

Technical Info

General
Format : AVI
Format/Info : Audio Video Interleave
File size : 1.37 GiB
Duration : 2h 33mn
Overall bit rate : 1 283 Kbps
Movie name : Assassination of Jesse James by the Coward Robert Ford
Writing application : Lavf51.19.0

Video
Format : MPEG-4 Visual
Format profile : Simple@L3
Codec ID : XVID
Duration : 2h 33mn
Bit rate : 1 142 Kbps
Width : 720 pixels
Height : 300 pixels
Display aspect ratio : 2.400
Frame rate : 25.000 fps
Resolution : 24 bits
Colorimetry : 4:2:0
Scan type : Progressive
Bits/(Pixel*Frame) : 0.211
Stream size : 1.22 GiB (89%)
Writing library : XviD 1.1.2 (UTC 2006-11-01)

Audio
Format : MPEG Audio
Format version : Version 1
Format profile : Layer 3
Codec ID/Hint : MP3
Duration : 2h 33mn
Bit rate mode : Constant
Bit rate : 128 Kbps
Channel(s) : 2 channels
Sampling rate : 48.0 KHz
Resolution : 16 bits
Stream size : 140 MiB (10%)
Writing library : LAME3.97

Subtitles
Format : .SRT/.IDX
Languages : English, English for the Hearing Impaired, Arabic, Hebrew, Icelandic,


Click Here To Download This Torrent
الرجوع الى أعلى الصفحة اذهب الى الأسفل
معاينة صفحة البيانات الشخصي للعضو http://www.filgoal.com/Arabic/Default.asp
 
Assassination Of Jesse James WS DVDRip XViD NoRAR MultiSUB
الرجوع الى أعلى الصفحة 
صفحة 1 من اصل 1
 مواضيع مماثلة
-
» Exclusive WWE Bragging Rights 2009 XVID RMVB 499MB
» صور jesse mccartney

صلاحيات هذا المنتدى:لاتستطيع الرد على المواضيع في هذا المنتدى
منتديات قااااهر :: قسم الافلام :: افلام اجنبى تورنت-
انتقل الى: